Season 12 Episode 1 TBA | Dewa Amor - Ridho Irama | Suivante

Veeram The Powerman (2016) Hindi Web-Rip x264 AAC 1 14Gb By TeriKasam mkv

seeders: 211
leechers: 289
updated:
Added by TeriKasam1770 in Movies > Dubbed Movies
Torrent verified. Downloaded 853 times.

DownloadFast Safe Anonymous
movies, software, shows...
Veeram The Powerman (2016) Hindi Web-Rip x264 AAC 1 14Gb By TeriKasam mkv (Size: 1.14 GB)
  Veeram The Powerman (2016) Hindi Web-Rip x264 AAC 1.14Gb...By....TeriKasam.mkv 1.14 GB

Description

Veeram The Powerman (2016) Hindi Web-Rip x264 AAC 1 14Gb By TeriKasam mkv
image







General
Unique ID : 210678273433088362908432838363608277769 (0x9E7F28D7DA6C49EDB3CA265350F86309)
Complete name : E:\Veeram The Powerman (2016) Hindi Web-Rip x264 AAC 1.14Gb...By....TeriKasam.mkv
Format : Matroska
Format version : Version 4 / Version 2
File size : 1.14 GiB
Duration : 2h 29mn
Overall bit rate : 1 093 Kbps
Encoded date : UTC 2016-07-14 00:14:34
Writing application : mkvmerge v9.2.0 ('Photograph') 32bit
Writing library : libebml v1.3.3 + libmatroska v1.4.4

Video
ID : 1
Format : AVC
Format/Info : Advanced Video Codec
Format profile : [email protected]
Format settings, CABAC : Yes
Format settings, ReFrames : 3 frames
Codec ID : V_MPEG4/ISO/AVC
Duration : 2h 29mn
Bit rate : 965 Kbps
Width : 854 pixels
Height : 480 pixels
Display aspect ratio : 16:9
Frame rate mode : Constant
Frame rate : 25.000 fps
Color space : YUV
Chroma subsampling : 4:2:0
Bit depth : 8 bits
Scan type : Progressive
Bits/(Pixel*Frame) : 0.094
Stream size : 1.01 GiB (88%)
Default : Yes
Forced : No
Color range : Limited
Color primaries : BT.709
Transfer characteristics : BT.709
Matrix coefficients : BT.709

Audio
ID : 2
Format : AAC
Format/Info : Advanced Audio Codec
Format profile : LC
Codec ID : A_AAC
Duration : 2h 29mn
Bit rate : 126 Kbps
Channel(s) : 2 channels
Channel positions : Front: L R
Sampling rate : 44.1 KHz
Frame rate : 43.066 fps (1024 spf)
Compression mode : Lossy
Delay relative to video : -40ms
Stream size : 135 MiB (11%)
Language : Hindi
Default : Yes
Forced : No



SCREENSHOTS
Click On Image

image
image
image
image
image
image
image
image
image
image
image
image
image
image
image
image
image
image
image
image

Sharing Widget


Download torrent
1.14 GB
seeders:244
leechers:389
Veeram The Powerman (2016) Hindi Web-Rip x264 AAC 1 14Gb By TeriKasam mkv



To share this torrent use the code below and insert it into comments, status messages, forum posts or your signature.

Torrent: Veeram The Powerman (2016) H... AAC 1 14Gb By TeriKasam mkv

Trackers

tracker name
udp://tracker.openbittorrent.com:80/announce
udp://tracker.coppersurfer.tk:6969/announce
udp://p4p.arenabg.ch:1337/announce
udp://p4p.arenabg.com:1337/announce
udp://explodie.org:6969/announce
udp://tracker.aletorrenty.pl:2710/announce
udp://9.rarbg.to:2710/announce
udp://torrent.gresille.org:80/announce
udp://tracker.opentrackr.org:1337/announce
udp://tracker.piratepublic.com:1337/announce
ĀµTorrent compatible trackers list

Locations

name
KickassTorrents
ExtraTorrent
Torrent hash: 33B4986FF278716D7B76B0CBE80D2730CF813772

All Comments

audio
0/10
video
0/10
please, leave only comments related to that torrent
Sign In


User Opinions

Report a bug Open chat